#TITLE:BLOOD on FIRE;
#SUBTITLE:(SHAM-POO vs. HEAVENS WiRE REMIX);
#ARTIST:AAA;
#TITLETRANSLIT:;
#SUBTITLETRANSLIT:;
#ARTISTTRANSLIT:;
#CREDIT:;
#BANNER:;
#BACKGROUND:;
#LYRICSPATH:;
#CDTITLE:;
#MUSIC:01 BLOOD on FIRE (SHAM-POO vs. HEAVENS WiRE RMX) 1.mp3;
#OFFSET:0.000;
#SAMPLESTART:100.000;
#SAMPLELENGTH:12.000;
#SELECTABLE:YES;
#BPMS:0.000=77.000,8.750=78.000,16.000=77.000,32.000=155.000,403.000=77.500,405.000=155.000,409.000=77.500,441.500=155.000,452.000=77.500,456.000=155.000,596.000=77.499,601.000=38.739;
#STOPS:0.000=0.420
,267.000=0.360
,440.750=1.500
,441.000=1.340
,441.250=1.340
,441.500=1.340
,441.750=0.040
,442.000=0.040
,442.250=0.040
,442.500=0.040
,442.750=0.140
,443.000=0.040
,443.250=0.040
,443.500=0.040
,443.750=0.040
,444.000=0.140
,444.250=0.040
,444.500=0.040
,444.750=0.040
,445.000=0.040
,445.250=0.140
,445.500=0.040
,445.750=0.040
,446.000=0.040
,446.250=0.040
,446.500=0.140
,446.750=0.040
,447.000=0.140
,447.250=0.040
,447.500=0.140
,447.750=0.040
,448.000=0.140
,448.250=0.040
,448.500=0.140
,448.750=0.040
,449.000=0.040
,449.250=0.040
,449.500=0.040
,449.750=0.040
,450.000=0.040
,450.250=0.040
,450.500=0.040
,450.750=0.040
,451.000=0.040
,451.250=0.040
,451.500=0.040
,451.750=0.040
,496.000=0.340
,496.500=0.200
,497.000=0.200
,497.500=0.200
,498.000=0.200
,498.500=0.200
;
#BGCHANGES:;
// cache tags:
#FIRSTBEAT:0.063;
#LASTBEAT:603.250;
#SONGFILENAME:Songs/nhac/01 BLOOD on FIRE (SHAM-POO vs. HEAVENS WiRE RMX) 1/01 BLOOD on FIRE (SHAM-POO vs. HEAVENS WiRE RMX) 1.sm;
#HASMUSIC:1;
#HASBANNER:0;
#MUSICLENGTH:285.497;
// end cache tags

//---------------dance-single - ----------------
#NOTES:
     dance-single:
     :
     Hard:
     11:
     1.000,1.000,1.000,0.175,1.000,1718.000,331.000,50.000,0.000,0.000:
0000
1000
0001
0000
0000
0000
0001
0000
1000
0000
0000
0000
0010
0000
0001
0000
0010
0000
0001
0000
0000
0000
0001
0000
1000
0000
0000
0000
0100
0000
1000
0000
0010
0000
1000
0000
0000
0000
1000
0000
0001
0000
0000
0000
0100
0000
0001
0000
1000
0000
0001
0000
0000
0000
0001
0000
1000
0000
0000
0000
0100
0000
0001
0000
,
0010
0100
0000
0100
0010
0000
0010
1000
0001
1000
0000
1000
0001
0000
0010
0001
0100
0010
0000
0010
1000
0000
1000
0100
1000
0001
0000
0001
1000
0000
0100
1000
,
0100
1000
0000
1000
0001
0000
0100
1000
0001
0010
0000
0010
0001
0000
1000
0001
0010
0001
0000
0001
1000
0000
0100
1000
0010
0100
0000
0100
0001
0000
1000
0100
,
0010
0001
0000
0001
1000
0000
1000
0100
0010
0100
0000
0100
0010
0000
0001
0010
0100
1000
0000
1000
0100
0000
0100
0001
1000
0001
0000
1000
0001
0000
0010
0100
,
0110
0001
0000
0001
1000
0000
0100
1000
0001
0010
0000
0010
0100
0000
1000
0001
0010
0100
0000
0100
0010
0000
0010
1000
0100
1000
0000
1000
0100
0000
0100
0010
,
0001
1000
0000
1000
0010
0000
0010
0001
1000
0100
0000
0100
0010
0000
0001
0010
0100
0010
0000
0010
0001
0000
0001
1000
0100
1000
0000
1000
0001
0000
0001
0010
,
0001
1000
0000
1000
0100
0000
0100
1000
0001
0010
0000
0010
0100
0000
0100
0001
1000
0010
0000
0010
0100
0000
0100
1000
0001
0010
0000
0010
0001
0000
0100
0010
,
0100
1000
0000
1000
0001
0000
0001
0010
0100
0010
0000
0010
0100
0000
0001
0010
0100
0010
0000
0010
1000
0000
1000
0100
1000
0010
0000
0010
0100
0000
1000
0001
,
0110
0001
0000
0001
1000
0000
0100
1000
0001
0010
0000
0010
0001
0000
0001
1000
,
0100
1000
0000
1000
0001
0000
0001
0010
0100
1000
0000
1000
0100
0000
0010
0001
,
0100
0010
0000
0010
1000
0000
1000
0100
0010
0001
0000
0001
0100
0000
0100
0010
,
1000
0001
0000
0001
1000
0000
0001
0010
0001
0000
1100
1000
1100
0000
0101
0100
,
0101
0010
0000
0100
0010
0000
0010
0001
1000
0100
0000
0100
1000
0000
1000
0001
,
0010
0100
0000
0100
1000
0000
1000
0100
0010
0100
0000
0100
0001
0000
0001
1000
,
0100
0010
0000
0010
0001
0000
0001
1000
0100
0010
0000
0010
1000
0000
0100
0010
,
0100
1000
0100
0010
0001
1000
0001
0100
0010
1000
0001
0010
0100
1000
0100
0010
,
1001
0100
1001
0100
0011
0100
0011
0100
,
1010
0100
1010
0100
0101
0100
0101
0100
,
1010
0100
1010
0100
0011
0100
0011
0100
,
0110
0100
0110
0100
1100
0100
0011
1001
,
0011
0010
0011
0010
1100
0010
1100
0010
,
1001
0010
1001
0010
0110
0010
0110
0010
,
2010
0100
0001
3100
0102
0100
1000
0103
,
2001
0000
3100
0000
1002
0000
0103
0000
1100
0000
0011
0000
0010
0001
0100
0010
,
1000
0100
0010
0001
1000
0100
1000
0100
1000
0100
0010
0001
0010
0001
0010
0100
,
0010
0000
1000
0000
0100
0000
0010
0000
0100
0000
0010
0000
0100
0000
0010
0000
0001
0000
1000
0000
0010
0000
0001
0000
0100
0000
0000
0000
0000
0000
0010
0001
,
1000
0000
0100
0000
0010
0000
0010
0000
0001
0000
0010
0000
0100
0000
0001
0000
0010
0000
0100
0000
0010
0000
1000
0000
0010
0000
0000
0000
0000
0000
0010
0100
,
0001
0000
0100
0000
0001
0000
0100
0000
0001
0000
0010
0000
0100
0000
1000
0000
0100
0000
0010
0000
0001
0000
0010
0000
1001
0000
0000
0000
0000
0000
0010
0100
,
0001
0100
0010
1000
0100
0001
1000
0010
0100
0001
0010
0100
1000
0010
0100
0010
,
1000
0000
0001
0000
1000
0000
0100
0000
0001
0000
0010
0000
0100
0000
1000
0000
0001
0000
0010
0000
0100
0000
0000
0000
0010
0000
0000
0000
0000
0000
1000
0100
,
0010
0100
0010
0100
1000
0010
0100
0010
0100
0010
0001
1000
0010
0100
0100
0010
,
0100
0010
0100
0001
1000
0100
0010
1000
0100
0010
0100
0010
0110
0000
0000
0000
,
1001
0100
0010
0011
0000
1100
0000
1100
,
0010
0100
1000
0001
0011
1010
0000
0100
,
1100
0100
0010
0011
0000
1001
0000
0100
,
1001
0011
0000
1010
0000
1001
0000
0100
,
1001
1000
1100
0100
0110
0010
0011
0001
,
0101
0100
0110
0100
1100
1000
1010
0100
,
0010
0001
0010
0001
0010
0001
0100
0000
0010
1000
0010
1000
0010
1000
0100
0000
,
0001
1000
0010
0100
0001
1000
0010
0100
1000
0100
0010
0001
0010
0100
1000
0100
,
0110
0000
0000
0110
0000
0000
0220
0000
0000
0000
0000
0000
0000
0000
0330
0000
,
1001
0001
0101
0001
0011
0001
1001
0001
,
1100
1000
1010
1000
1001
1000
1100
1000
,
0011
0010
0110
0010
1010
0010
0011
0010
,
1100
0000
0100
0000
0101
0000
0100
0000
0110
0000
0100
0000
1100
0000
0110
0100
,
0110
0000
1001
1000
1100
1000
1010
1000
,
1001
1000
1100
1000
0011
1100
0110
0101
,
1000
0100
0010
0100
1000
0001
0110
0000
0001
0010
0100
0010
0001
1000
0110
0000
,
0010
0001
0100
0001
0010
0100
0110
0000
0010
1000
0100
1000
0010
0100
0010
0001
,
1000
0010
0100
0001
1000
0010
0100
0001
1000
0010
0100
0001
1000
0010
0100
0010
,
1001
0000
1100
0000
0011
1100
0110
0100
,
1001
0100
0000
0100
0010
0000
1000
0010
0100
0001
0000
0001
0100
0000
0100
0010
,
1000
0010
0000
0010
0100
0000
0100
0001
1000
0010
0000
0010
1000
0000
0001
0100
,
1000
0001
0000
0001
0010
0000
0010
1000
0001
0100
0000
0100
1000
0000
1000
0001
,
0010
0100
0000
0100
0010
0000
0100
0001
0100
0000
1010
0010
1010
0000
1100
1000
,
1100
0001
0000
1000
0001
0000
0001
0100
0010
1000
0000
1000
0010
0000
0010
0100
,
0001
1000
0000
1000
0010
0000
0010
1000
0001
1000
0000
1000
0100
0000
0100
0010
,
1000
0001
0000
0001
0100
0000
0100
0010
1000
0001
0000
1000
0100
0010
0001
0100
,
1001
0000
1010
0000
0011
0100
1001
0100
,
0110
0001
0000
0001
1000
0000
0010
1000
0001
0100
0000
0100
0001
0000
0001
1000
,
0010
1000
0000
1000
0001
0000
0001
0100
0010
1000
0000
1000
0010
0000
0100
0001
,
0010
0100
0000
0100
1000
0000
1000
0010
0100
0001
0000
0001
0010
0000
0010
0100
,
1000
0001
0000
0001
1000
0000
0001
0100
0001
0000
1010
1000
1010
0000
0011
0010
,
0011
0100
0000
0010
0100
0000
0100
0001
1000
0010
0000
0010
1000
0000
1000
0001
,
0100
0010
0000
0010
1000
0000
1000
0010
0100
0010
0000
0010
0001
0000
0001
1000
,
0010
0100
0000
0100
0001
0000
0001
1000
0010
0100
0000
1000
0001
0100
0001
0100
,
1001
0000
0011
0000
0110
0100
0202
0303
,
1001
1000
1100
1000
1010
1000
1100
1000
,
0011
0001
0101
0001
1001
0001
0011
0001
,
0110
0100
0101
0100
1100
0100
0110
0100
,
0101
0100
1001
0100
0011
0101
0011
0100
,
0011
0100
1010
0100
1010
0100
1001
0100
,
0011
0100
1010
0100
1001
0100
2010
0100
,
0001
3100
0012
0010
1000
0013
1100
0000
,
0101
0000
0000
0000
1001
0000
0011
0000
1100
0000
0101
0000
1001
0010
0100
0010
,
1000
0100
0010
1000
0001
0010
0001
0001
0010
0100
0010
0100
0010
0100
1000
0100
,
0010
0001
0010
0001
0010
0100
0100
0010
0010
0001
0100
0001
0100
0001
0010
0100
,
0010
0100
0010
0100
0010
0100
1000
0100
0010
0001
0001
0010
0100
0010
0100
0010
,
0100
0000
1000
0000
0010
0000
1000
0000
0010
0000
1000
0000
0010
0000
0100
0000
1001
0000
0000
0000
0000
0000
0000
0000
0000
0000
0000
0000
0001
0010
0100
0010
,
1000
0100
0010
0001
0010
0100
1000
1000
0100
0010
0100
1000
0100
0010
0100
0010
,
0001
0010
0001
0010
0100
0010
0100
0010
0001
0000
0000
0000
1001
0000
0100
0000
,
0011
0000
0100
0000
1010
0000
0100
0000
1001
0000
0100
0000
0101
0010
0100
0010
,
1000
0010
0100
0010
0001
0010
0100
0010
0110
0000
0000
0000
0110
0000
1000
0000
,
0001
0101
0000
1010
0000
1010
0001
1000
,
0010
0100
0101
0011
0000
1000
1010
1000
,
0001
0101
0000
0110
0000
1000
0110
0101
,
0000
0011
0000
0110
0000
1000
0110
0010
,
1010
1000
1001
0001
0101
0100
1100
1000
,
1001
0000
1000
0000
1010
0000
0010
0000
0011
0000
1000
0000
0001
0100
0001
0100
,
0001
0100
1000
0000
0001
0010
0001
0010
0001
0010
1000
0000
0100
0010
0001
1000
,
0100
0010
0001
1000
0010
1000
0001
0100
0001
1000
0010
1000
1001
0000
0000
1001
,
0000
2002
0000
0000
0000
3003
0110
0010
,
0011
0010
1010
0010
0110
0010
0101
0100
,
1100
0100
0110
0100
0101
0100
1010
1000
,
1001
1000
1100
1000
1010
1000
0101
0001
,
0011
0000
0001
0000
1001
0000
0001
0000
0101
0000
1001
0001
1001
0000
0000
0000
,
0110
0100
0101
0100
1100
0100
0110
0100
,
0101
0000
0100
0000
1010
0000
0101
0000
1001
0000
0011
0000
0100
0001
1000
0001
,
0100
0010
1001
0000
0010
1000
0001
1000
0010
0100
1001
0000
1000
0100
0010
0100
,
1000
0001
1001
0000
1000
0010
0100
0001
1000
0001
1000
0010
0100
0010
0001
0010
,
0100
1000
0001
0010
0100
1000
0001
0010
0100
1000
0001
1000
0220
0000
0000
0000
,
0000
0000
0000
0330
2001
0000
3100
0000
0210
0000
0310
0000
0001
0010
0100
1000
,
0001
0000
1000
0000
0010
0000
0100
0000
0110
0010
0000
0100
0010
0000
0100
0010
0000
0100
0010
0000
0001
0000
0001
0000
1000
0100
0000
1000
0100
0000
1000
0100
,
0000
1000
0100
0000
0010
0000
0010
0000
0001
0100
0000
0001
0100
0000
0001
0100
0000
0001
0100
0000
0010
0000
0010
0000
0001
1000
0000
0001
1000
0000
0001
1000
,
0000
0001
1000
0000
0100
0000
0100
0000
0010
0001
0000
0010
0001
0000
0010
0001
0000
0010
0001
0000
0100
0000
0100
0000
1000
0010
0000
1000
0010
0000
1000
0010
,
0000
1000
0010
0000
0100
0000
0001
1000
0000
0001
1000
0000
0100
0000
1000
0001
0000
1000
0001
0000
0100
0000
0001
0010
0000
0001
0010
0000
0100
0000
2020
0000
,
3030
0110
0001
0210
0310
0000
1010
0000
0101
0000
0010
1100
0000
0011
0000
0000
,
0000
1100
0100
0011
0000
0010
0001
0100
1010
0100
0000
0012
1000
0000
0003
0000
,
0000
1100
0010
0101
0000
0000
0011
0000
1100
0000
0010
0101
0000
1010
0000
0000
,
0000
0100
0010
1001
0000
0000
0000
0101
0000
0000
0100
1010
0000
0000
0010
0101
,
0000
0000
1000
0000
0001
0000
0220
0330
0220
0330
0220
0330
0220
0330
0001
0000
1000
0000
0100
0000
0010
0000
0001
0000
0001
0000
0010
0000
0100
0000
1000
0000
,
0001
0010
0001
0010
0100
1000
0100
0010
0001
0010
0100
0100
1000
1000
0001
0001
,
0010
0010
0100
0100
1000
0001
0100
0001
0010
0001
0100
0001
1000
0100
1000
0001
,
0220
0000
0000
0000
0000
0000
0000
0330
1100
0000
0100
0000
0011
0100
1010
0000
,
0110
0100
1100
0100
0101
0100
0110
0100
,
1010
0010
0011
0010
0110
0010
1010
0010
,
0101
0001
1001
0001
0011
0001
0101
0001
,
1010
0000
1000
0000
1100
0000
1000
0000
1001
0000
1000
0000
1010
0000
1001
1000
,
1001
0000
0110
0010
1010
0010
0011
0010
,
0110
0010
1010
0010
0101
1010
1001
1100
,
0010
1000
0001
1000
0010
0100
1001
0000
0100
0001
1000
0001
0100
0010
1001
0000
,
0001
0010
0100
0010
0001
1000
1001
0000
0001
0100
0010
1000
0001
1000
0001
0100
,
0010
0100
1000
0100
0010
0001
1000
0100
0010
0001
1000
0100
0010
0001
1000
0001
,
0220
0330
0000
0000
0000
0000
0000
0000
0000
0000
0000
0000
0000
0000
0000
0000
0000
0000
0000
0000
0000
0000
0000
0000
0000
0000
0000
0000
0000
0000
0000
0000
0000
0000
0000
0000
0000
0000
0000
0000
0000
0000
0000
0000
0000
0000
0000
0000
1100
0000
0000
0000
0000
0000
0000
0000
0000
0000
0000
0000
0000
0000
0000
0000
0000
0000
0000
0000
0000
0000
0000
0000
0000
0000
0000
0000
0000
0000
0000
0000
0000
0000
0000
0000
0000
0000
0000
0000
0000
0000
0000
0000
0000
0000
0000
0000
0011
0000
0000
0000
0000
0000
0000
0000
0000
0000
0000
0000
0000
0000
0000
0000
0000
0000
0000
0000
0000
0000
0000
0000
0100
0000
0000
0000
0000
0000
0000
0000
0000
0000
0000
0000
0000
0000
0000
0000
0000
0000
0000
0000
0000
0000
0000
0000
1010
0000
0000
0000
0000
0000
0000
0000
0000
0000
0000
0000
0000
0000
0000
0000
0000
0000
0000
0000
0000
0000
0000
0000
0100
0000
0000
0000
0000
0000
0000
0000
0000
0000
0000
0000
0000
0000
0000
0000
0000
0000
0000
0000
0000
0000
0000
0000
,
2002
3003
2020
3030
0202
0303
2020
3030
0220
0330
2200
3300
1001
0000
1100
0000
,
1001
0011
0001
0101
0100
1100
1000
1010
,
0010
0011
0010
1010
1000
1100
0100
0011
,
1100
0100
1100
0000
0000
0000
1001
0000
0100
0000
0011
0000
0100
0000
1100
0000
,
0010
0101
1000
0101
0001
1001
0100
0011
,
1001
0000
1000
0100
0010
0100
1000
0001
0110
0000
0001
0010
0100
0010
0001
1000
,
0110
0000
0010
1000
0001
1000
0010
0100
0110
0000
0010
0001
1000
0100
0010
0100
,
0010
0001
1000
0001
0100
0001
1000
0010
0100
0001
1000
0010
0100
0001
1000
0010
,
0100
0010
0110
0000
0000
0000
1100
0000
0000
0000
0011
0000
0100
0000
1001
0000
,
0100
0000
1001
0100
0000
0100
0010
0000
1000
0010
0100
0001
0000
0001
0100
0000
,
0100
0010
1000
0010
0000
0010
0100
0000
0100
0001
1000
0010
0000
0010
1000
0000
,
0001
0100
1000
0001
0000
0001
0010
0000
0010
1000
0001
0100
0000
0100
1000
0000
,
1000
0001
0010
0100
0000
0100
0010
0000
0100
0001
0100
0000
1010
0010
1010
0000
,
1100
1000
1100
0001
0000
1000
0001
0000
0001
0100
0010
1000
0000
1000
0010
0000
,
0010
0100
0001
1000
0000
1000
0010
0000
0010
1000
0001
1000
0000
1000
0100
0000
,
0100
0010
1000
0001
0000
0001
0100
0000
0100
0010
1000
0001
0000
1000
0100
0010
,
0001
0100
1001
0000
0000
0000
1010
0000
0000
0000
0011
0000
0100
0000
1001
0000
,
0100
0000
0110
0001
0000
0001
1000
0000
0010
1000
0001
0100
0000
0100
0001
0000
,
0001
1000
0010
1000
0000
1000
0001
0000
0001
0100
0010
1000
0000
1000
0010
0000
,
0100
0001
0010
0100
0000
0100
1000
0000
1000
0010
0100
0001
0000
0001
0010
0000
,
0010
0100
1000
0001
0000
0001
1000
0000
0001
0100
0001
0000
1010
1000
1010
0000
,
0011
0010
0011
0100
0000
0010
0100
0000
0100
0001
1000
0010
0000
0010
1000
0000
,
1000
0001
0100
0010
0000
0010
1000
0000
1000
0010
0100
0010
0000
0010
0001
0000
,
0001
1000
0010
0100
0000
0100
0001
0000
0001
1000
0010
0100
0000
1000
0001
0100
,
0001
0000
0000
0000
0000
0000
0000
0000
0000
0000
0000
0000
0100
0000
0000
0000
0000
0000
0000
0000
0000
0000
0000
0000
1001
0000
0000
0000
0000
0000
0000
0000
0000
0000
0000
0000
0000
0000
0000
0000
0000
0000
0000
0000
0000
0000
0000
0000
0000
0000
0000
0000
0000
0000
0000
0000
0000
0000
0000
0000
0000
0000
0000
0000
0000
0000
0000
0000
0000
0000
0000
0000
0011
0000
0000
0000
0000
0000
0000
0000
0000
0000
0000
0000
0000
0000
0000
0000
0000
0000
0000
0000
0000
0000
0000
0000
0000
0000
0000
0000
0000
0000
0000
0000
0000
0000
0000
0000
0000
0000
0000
0000
0000
0000
0000
0000
0000
0000
0000
0000
0110
0000
0000
0000
0000
0000
0000
0000
0000
0000
0000
0000
0000
0000
0000
0000
0000
0000
0000
0000
0000
0000
0000
0000
0100
0000
0000
0000
0000
0000
0000
0000
0000
0000
0000
0000
0000
0000
0000
0000
0000
0000
0000
0000
0000
0000
0000
0000
0202
0303
0000
0000
0000
0000
0000
0000
0000
0000
0000
0000
0000
0000
0000
0000
0000
0000
0000
0000
0000
0000
0000
0000
,
2002
0000
0000
0000
,
0000
0000
0000
3003
0220
0000
0000
0000
0000
0000
0000
0000
0000
0330
0000
0000
;
